#TITLE:White Lines;
#SUBTITLE:(Bush Mix);
#ARTIST:RX (www.jointhepartyparty.com);
#TITLETRANSLIT:;
#SUBTITLETRANSLIT:;
#ARTISTTRANSLIT:;
#CREDIT:;
#BANNER:duality.png;
#BACKGROUND:duality-bg.png;
#LYRICSPATH:;
#CDTITLE:!cdtitle.png;
#MUSIC:white_lines.mp3;
#OFFSET:-0.093;
#SAMPLESTART:60.000;
#SAMPLELENGTH:17.500;
#SELECTABLE:YES;
#BPMS:0.000=160.000;
#STOPS:;
#BGCHANGES:;
// cache tags:
#FIRSTBEAT:0.000;
#LASTBEAT:387.500;
#SONGFILENAME:Songs/nhac/White Lines (Bush Mix)/duality.sm;
#HASMUSIC:1;
#HASBANNER:1;
#MUSICLENGTH:145.880;
// end cache tags

//---------------dance-single - ----------------
#NOTES:
     dance-single:
     :
     Hard:
     13:
     1.000,1.000,1.000,0.603,1.000,1012.000,230.000,88.000,0.000,5.000:
1100
1000
0010
0001
0110
0001
0100
1000
,
1010
0001
1000
0001
1010
0001
0010
0100
,
1100
0010
0100
1000
1001
0100
0010
0001
,
1100
0010
0100
0010
0110
0000
0000
0000
,
0100
1000
0100
0000
0000
0000
1100
0000
0110
0000
0011
0000
0110
0000
1100
0000
,
0010
0100
0010
0000
0000
0000
0110
0000
1001
0000
0110
0000
0011
0000
1001
0000
,
0010
0001
0010
0000
0000
0000
0101
0000
1010
0000
0101
0000
1100
0000
0011
0000
,
1000
0100
0010
0001
0010
0001
0010
0000
2100
0000
0101
0000
3101
0000
0000
0000
,
0010
1000
0100
0010
0100
1000
0001
1000
0100
0001
0010
0001
0100
0000
0000
0000
,
0010
0001
0010
0001
0100
0010
0001
0100
0010
0001
0100
0010
1000
0000
0000
0000
,
0100
1000
0010
1000
0100
0010
0100
1000
0100
1000
0001
0100
1000
0000
0000
0000
,
0010
0100
0001
0010
0100
0010
1000
0100
0010
1000
0001
0010
0100
0000
0000
0000
,
0100
0010
1000
0100
0010
0001
0100
0010
0100
0001
0010
0100
1000
0000
0000
0000
,
1000
0100
0001
0100
0010
0001
1000
0100
0010
0001
0100
0010
0100
0000
0000
0000
,
0010
1000
0001
1000
0010
0100
0010
1000
0100
1000
0100
1000
0100
0000
0000
0000
,
1000
0100
1000
0010
0100
0001
1000
0001
0100
1000
0010
0001
0100
0000
0000
0000
,
0110
1000
0010
0001
0010
0100
1001
0010
1000
0100
0010
0001
0100
0000
0000
0000
,
0110
1000
0110
0001
0110
1000
0110
0011
0100
1000
0110
0001
0100
0000
0000
0000
,
0011
1000
0110
0001
1100
0001
0110
1000
0011
0100
1000
0100
0001
0000
1001
0000
,
0110
0100
1001
0001
1010
0100
0010
0101
1100
1010
0001
0110
1000
0000
0000
0000
,
1010
0100
0001
0100
0001
0100
1010
0100
1000
0100
1000
0100
0001
0000
0000
0011
,
0101
0100
0110
0001
0110
0001
0011
0100
0101
0100
0110
0001
0010
0000
0000
0110
,
0101
0010
0011
0001
0110
1000
0011
1000
0100
0010
0100
1000
0001
0000
0000
0000
,
1100
0100
0101
0001
0011
0010
1010
1000
1001
0001
0011
0010
0110
0000
0000
0000
,
1000
1000
0001
1000
0100
0100
0100
1000
0012
0010
0100
1000
0013
0000
0000
0000
,
0010
0010
0001
1000
0100
0100
0001
1000
2001
0100
0010
0001
3100
0000
0002
0000
,
2003
0100
0010
0001
0010
0001
3200
0001
1000
0001
1300
0100
0010
0000
0000
0000
,
0000
0000
0000
0000
1001
0110
1001
0000
,
0001
0100
1000
0001
0010
0100
0001
1000
0100
0010
0001
0100
0010
0000
0000
0000
,
0001
0100
0010
0001
1000
0100
0001
1000
0010
0100
0001
0100
1001
0000
0000
0000
,
0010
0100
0001
0010
1000
0100
0010
0100
0001
0100
0010
0001
1100
0000
0000
0000
,
0010
1000
0100
0010
1000
0010
0100
0001
1000
0100
0010
0001
0110
0000
0000
0000
,
0010
0001
1000
0100
0000
0000
0000
0100
0020
0000
2030
0000
3020
0000
2030
0000
,
3010
0200
0300
1000
0010
0000
0000
1000
0100
0001
0002
0000
0203
0000
1300
0000
,
0120
0030
0011
0110
0000
0000
0000
0000
0021
0030
0101
1001
0000
0000
0000
1010
,
0000
0101
1010
0000
0000
0000
0101
0000
0100
1000
0000
1100
0000
0000
0000
0000
,
1000
0100
1000
0000
0000
0000
0000
0000
0001
0010
0001
0000
0000
0000
0000
0000
,
0100
0010
0100
0000
0000
0000
0000
0000
0100
0010
0001
0000
0000
0000
0000
0000
,
1010
0101
0010
1000
0100
0001
0100
1000
1100
0101
0001
0100
0001
0000
0000
0000
,
1100
0011
1000
0100
0001
0010
0001
0100
0101
0011
0010
0001
0010
0000
0000
0000
,
1000
0100
0001
0010
0100
0010
1000
0100
1000
0100
0010
0100
1000
0000
0000
0000
,
0001
0010
0001
0010
1000
0100
0001
0100
0001
0010
0100
0010
0001
0000
0000
0000
,
0100
0010
0001
0010
0001
0100
0010
0100
1000
0100
1000
0100
1000
0000
0000
0000
,
1000
0100
1000
0010
0100
1000
0010
0100
1000
0100
1000
0100
0010
0000
0000
0000
,
1100
1000
0010
0001
0110
0001
0100
1000
,
1010
0001
1000
0001
1010
0001
0010
0100
,
1100
0010
0100
1000
1001
0100
0010
0001
,
1100
0010
0100
0010
0110
0000
0000
0000
,
0100
1000
0100
0000
0000
0000
1100
0000
0110
0000
0011
0000
0110
0000
1100
0000
,
0010
0100
0010
0000
0000
0000
0110
0000
1001
0000
0110
0000
0011
0000
1001
0000
,
0010
0001
0010
0000
0000
0000
0101
0000
1010
0000
0101
0000
1100
0000
0011
0000
,
1000
0100
0010
0001
0010
0001
0010
0000
2100
0000
0101
0000
3101
0000
0000
0000
,
1100
0000
1100
0000
0001
0100
1000
0020
0030
0102
0103
0000
0000
0000
0000
0000
,
0101
0000
0101
0000
1000
0010
1000
0020
0030
1020
1030
0000
0000
0000
0000
0000
,
0110
0000
1001
0000
1000
0100
0010
0002
0003
2001
3001
0000
0001
0010
0100
2000
,
3000
1002
1003
0000
0010
0100
0010
2200
3300
0102
0013
0000
0000
0000
0000
0000
,
0011
0000
0011
0000
1000
0010
0001
0200
0300
2010
3010
0000
0000
0000
0000
0000
,
1010
0000
1010
0000
0001
0100
0001
0200
0300
0201
0301
0000
0000
0000
0000
0000
,
0110
0000
1001
0000
0001
0010
0100
2000
3000
1002
1003
0000
1000
0100
0010
0002
,
0003
2001
3001
0000
0100
0010
0100
0022
0033
2010
3100
0000
0000
0000
0000
0000
,
1000
0100
1000
0001
1000
0010
1000
0001
1000
0100
1000
0000
0000
0000
0000
0000
,
0001
0100
0001
1000
0001
0010
0001
1000
0001
0100
0001
0000
0000
0000
0000
0000
,
0010
1000
0010
0100
0010
0001
0010
0100
0010
1000
0010
0000
0000
0000
0000
0000
,
0100
1000
0100
0010
0100
0001
0100
0010
0100
1000
0100
0000
0000
0000
0000
0000
,
1000
0100
0010
0001
1000
0001
0010
0100
1000
0001
1000
0000
0000
0000
0000
0000
,
0001
0010
0100
1000
0001
1000
0100
0010
0001
1000
0001
0000
0000
0000
0000
0000
,
0010
1000
0001
0100
0010
0100
0001
1000
0010
0100
0010
0000
0000
0000
0000
0000
,
0100
0001
1000
0010
0100
0010
1000
0001
0100
0000
0000
0000
0000
0000
0000
0000
,
0101
0010
0100
0000
1000
0100
0010
0000
1001
0100
0010
0000
0001
0010
0100
0000
,
1100
0001
0010
0000
0100
1000
0010
0000
1100
0001
0010
0000
1000
0100
0001
0000
,
0101
0010
1000
0000
0001
0010
0100
0000
0110
1000
0001
0000
1000
0100
0010
0000
,
0101
0010
1000
0000
0001
0100
1000
0000
1010
0100
0010
0000
0001
0010
0100
0000
,
1001
0010
0100
0000
1000
0100
0010
0000
0011
1000
0100
0000
0010
0001
0100
0000
,
0011
1000
0100
0000
0001
0010
1000
0000
1010
0100
0001
0000
1000
0100
0010
0000
,
0110
0001
1000
0000
0001
0010
0100
0000
1010
0100
0001
0000
1000
0010
0001
0000
,
2002
0000
3113
0000
,
1000
0100
0010
0001
1000
0001
0110
0001
1100
0001
0110
0001
1010
0001
0110
0000
,
0100
0001
1000
0010
0100
0010
1001
0010
0101
0010
1001
0010
1100
0010
1001
0000
,
0001
0010
0100
1000
0001
1000
0110
1000
0011
1000
0110
1000
0101
1000
0110
0000
,
2100
3100
0210
0310
0021
0031
1002
0000
1003
0000
1001
0000
0110
0000
0000
0000
,
1010
0000
1010
0000
0100
1000
0010
0002
0003
1200
1300
0000
0000
0000
0000
0000
,
1100
0000
1100
0000
0010
0001
0010
0002
0003
0012
0013
0000
0000
0000
0000
0000
,
1001
0000
0110
0000
0010
1000
0001
0200
0300
0120
0130
0000
0100
0001
1000
0020
,
0030
0210
0310
0000
0001
1000
0001
2020
3030
1200
0301
0000
0000
0000
0000
0000
,
0101
0000
0101
0000
0010
0001
0100
2000
3000
0021
0031
0000
0000
0000
0000
0000
,
0011
0000
0011
0000
0100
1000
0100
2000
3000
2100
3100
0000
0000
0000
0000
0000
,
1001
0000
0110
0000
0100
0001
1000
0020
0030
0210
0310
0000
0010
1000
0001
0200
,
0300
0120
0130
0000
1000
0001
1000
0202
0303
0021
1030
0000
0000
0000
0000
0000
,
0011
0000
0011
0000
1000
0010
0001
0200
0300
2010
3010
0000
0000
0000
0000
0000
,
1010
0000
1010
0000
0001
0100
0001
0200
0300
0201
0301
0000
0000
0000
0000
0000
,
0110
0000
1001
0000
0001
0010
0100
2000
3000
1002
1003
0000
1000
0100
0010
0002
,
0003
2001
3001
0000
0100
0010
0100
0022
0033
2010
3100
0000
0000
0000
0000
0000
,
1100
0000
1100
0000
0001
0100
1000
0020
0030
0102
0103
0000
0000
0000
0000
0000
,
0101
0000
0101
0000
1000
0010
1000
0020
0030
1020
1030
0000
0000
0000
0000
0000
,
0110
0000
1001
0000
1000
0100
0010
0002
0003
2001
3001
0000
0001
0010
0100
2000
,
3000
1002
1003
0000
0010
0100
0010
2200
3300
0102
0013
0000
0000
0000
0000
0000
,
1000
0100
0010
0001
1000
0001
0010
0100
0001
0010
0100
1000
0100
0010
0001
0000
;
